#TITLE:The Legend of DJ Obvious;
#SUBTITLE:;
#ARTIST:Oh yea, you know you love me!;
#TITLETRANSLIT:;
#SUBTITLETRANSLIT:;
#ARTISTTRANSLIT:;
#CREDIT:;
#BANNER:DJO LOM ban.jpg;
#BACKGROUND:DJO LOM.jpg;
#LYRICSPATH:;
#CDTITLE:DJO.gif;
#MUSIC:DJO LOM.mp3;
#OFFSET:-2.016;
#SAMPLESTART:39.016;
#SAMPLELENGTH:12.000;
#SELECTABLE:YES;
#BPMS:0.000=333.000;
#STOPS:;
#BGCHANGES:;
// cache tags:
#FIRSTBEAT:32.000;
#LASTBEAT:504.000;
#SONGFILENAME:Songs/Music V.I.P ^_^/DJO LOM/DJO LOM.sm;
#HASMUSIC:1;
#HASBANNER:1;
#MUSICLENGTH:96.679;
// end cache tags

//---------------dance-single - Its DJ Obvio----------------
#NOTES:
     dance-single:
     Its DJ Obvio:
     Hard:
     11:
     0.969,1.000,1.000,0.445,0.000,481.000,132.000,43.000,0.000,2.000:

0000
0000
0000
0000
,
0000
0000
0000
0000
,
0000
0000
0000
0000
,
0000
0000
0000
0000
,
0000
0000
0000
0000
,
0000
0000
0000
0000
,
0000
0000
0000
0000
,
0000
0000
0000
0000
,
1000
0010
0100
0101
,
0010
1000
0001
1001
,
0010
0001
0110
0100
,
1000
0010
0001
1001
,
0010
1000
1010
0001
,
0101
0010
2002
3003
,
0010
1000
0010
1000
,
0001
0000
0100
0000
1000
0100
0001
0100
,
1000
0100
0010
0100
,
1000
0001
1000
0000
1010
0000
1001
0000
,
0001
0100
0010
0100
0001
0100
0010
1000
,
1100
0000
1000
0100
1000
0000
0100
0001
,
0010
0000
0001
0100
0010
0000
1100
0000
,
0001
0100
0010
1000
0100
0000
0011
0000
,
1000
0100
0001
0100
0010
0000
1100
0000
,
0001
0010
0100
1000
0101
0000
1010
0000
,
0010
0100
0001
1000
,
0100
0010
0001
0010
0100
0000
0010
0000
,
1010
0000
0100
0001
1000
0000
0001
0000
,
1100
0000
0010
0001
0010
0100
0001
1000
,
0010
0000
1001
0000
,
0110
0000
1010
0101
,
0101
1010
0011
1100
,
1001
0000
0000
0110
0000
0000
1001
0000
,
0110
1000
0110
0100
,
0110
0001
0110
0100
,
0110
1000
1001
0010
,
0011
0000
0000
0001
1000
0001
0000
0000
,
0011
0010
0110
1000
,
1001
0100
0110
1000
,
0101
0010
1100
0001
,
1010
0000
0000
1001
0100
0010
0100
0001
,
1001
0000
1000
0001
,
0100
0010
1000
0011
,
1100
0001
0100
0010
,
1000
0100
0010
1000
0001
0010
0100
0001
,
1000
0101
0101
1000
,
0010
0101
0101
1000
,
0001
0100
0010
1001
,
0110
0110
2002
0000
,
3013
0100
0010
2000
,
3001
0011
0000
1100
,
0000
1000
0001
0100
,
1010
0000
1001
0000
,
0010
0000
1000
0000
0100
0000
2002
3003
,
2002
3003
0100
0000
0000
0000
0101
0000
,
0000
0000
0001
0100
1000
0100
0010
1000
,
0101
0000
1010
0000
,
1100
0010
0001
2000
,
3002
1103
0000
0010
,
0100
0000
0010
0100
1000
0010
0001
0010
,
1100
0000
0011
0000
,
1010
0100
0001
0020
,
0230
1300
0000
0011
,
0000
1010
0101
0011
,
1000
0200
0010
1300
,
1100
0010
0100
0001
,
1000
0100
0010
0001
,
1000
0001
0100
0010
,
1000
0100
0002
0103
1000
0010
0002
0013
,
1000
1100
0011
1100
,
0010
0100
0001
1000
0100
1000
0010
0100
,
0001
1000
0001
0100
,
0010
1000
0200
1300
0010
1000
0200
1300
,
0010
0000
0101
0000
0100
0000
2200
3300
,
0010
0001
0011
1010
,
0200
0300
0001
0000
0101
0000
1010
0000
,
0110
0100
1001
0000
,
1100
0000
1100
0000
1100
0000
0002
0003
,
0110
0000
0110
0000
0110
0000
0200
0300
,
1001
1001
0110
0110
,
0011
0001
1001
1000
,
2200
0000
0000
0000
,
0000
0000
0000
3300
,
0000
0000
0000
0000
,
0000
0000
2002
0000
0000
0000
0000
3003
,
0000
0000
0000
0000
,
0000
0000
0000
0000
,
1001
0000
0000
0000
,
0000
0000
0000
0000
,
0000
0000
0000
0000
,
0000
0000
0000
0000
,
0110
0000
0000
0000
,
0000
0000
0000
0000
,
0100
1000
0100
1000
,
0020
0030
0200
0300
0001
0000
2000
3000
,
0001
0000
0020
0030
0100
0000
1000
0000
,
0001
0100
0010
1000
,
0001
0100
0001
0000
0010
0100
1000
0000
,
0010
1000
0010
0000
0100
0001
1000
0000
,
1000
0100
0010
0001
1000
0100
0010
0001
,
1000
1001
1001
0000
,
0100
0001
0100
0001
,
1000
0000
0200
0300
0011
0000
0022
0033
,
0100
0000
2000
3000
0001
0000
0010
0000
,
0100
1000
0101
0101
,
1000
0100
0100
1000
0010
0100
0001
0010
,
1000
0010
1000
0001
1000
0000
0202
0303
,
0010
0000
2000
3000
0100
0000
0001
0000
,
1000
0000
0000
0110
0000
0000
0100
0000
,
0001
1000
0001
1000
0010
0100
0010
0100
,
0001
0010
0002
0013
1000
0010
2000
3010
,
0100
0001
0200
0301
0010
0001
0100
0010
,
0100
1000
0001
1000
0010
0100
0001
0010
,
0001
1000
0100
1000
0001
0100
0010
0100
,
0001
0010
0001
1000
0100
1000
0010
0100
,
0010
1000
0001
1000
0001
0010
0100
1000
,
0010
0100
0001
1000
0100
0010
0001
1000
,
0110
0000
0000
0110
0000
0000
0110
0000
,
0000
1001
0000
0000
0000
0000
1001
0000
,
0101
0000
0000
0101
0000
0000
1010
0000
,
0101
0000
0000
0101
0000
0000
0011
0000
,
1100
0000
0000
1001
0000
0000
0110
0000
,
0101
0000
0000
0101
0000
0000
0110
0000
,
1010
0000
0000
1010
0000
0000
1001
0000
,
0110
0000
0000
0110
0000
0000
1001
0000
,
0202
0000
0000
0000
,
0000
0000
0000
0000
,
0303
0000
0000
0000
;
